Season 8 Episode 1 Aloha, Beverly Hills (1) | Littérature française | Ganni Edna leather ankle boots IOPZJ4WwTd

TV - Other

Our Girl S04E02 Nigeria Tour Episode 2 mp4

  • Download 5x Faster
  • Download torrent
  • Direct Download
  • Rate this torrent +  |  -
Our Girl S04E02 Nigeria Tour Episode 2 mp4

Download FREE And Anonymously


Torrent info

Name:Our Girl S04E02 Nigeria Tour Episode 2 mp4

Total Size: 651.63 MB

Magnet: Magnet Link

Seeds: 0

Leechers: 0

Stream: Watch Full Movie @ Movie4u

Last Updated: 2018-06-13 11:20:22 (Update Now)

Torrent added: 2018-06-13 12:20:20



CyberGhost VPN For Torrents

Torrent Files List


Our Girl S04E02 Nigeria Tour Episode 2.mp4 (Size: 651.63 MB) (Files: 1)

 Our Girl S04E02 Nigeria Tour Episode 2.mp4

651.63 MB
 

tracker

leech seeds
 

Torrent description

Format : MPEG-4
Format profile : Base Media
Codec ID : isom (isom/iso2/avc1/mp41)
Overall bit rate mode : Variable
Overall bit rate : 1 663 kb/s


Video
ID : 1
Format : AVC
Format/Info : Advanced Video Codec
Format profile : [email protected]
Format settings : CABAC / 4 Ref Frames
Format settings, CABAC : Yes
Format settings, RefFrames : 4 frames
Format settings, GOP : M=8, N=96
Codec ID : avc1
Codec ID/Info : Advanced Video Coding
Duration : 57 min 43 s
Bit rate : 1 564 kb/s
Width : 960 pixels
Height : 540 pixels
Display aspect ratio : 16:9
Frame rate mode : Constant
Frame rate : 25.000 FPS
Color space : YUV
Chroma subsampling : 4:2:0
Bit depth : 8 bits
Scan type : Progressive
Bits/(Pixel*Frame) : 0.121
Stream size : 646 MiB (94%)
Color range : Limited
Color primaries : BT.709
Transfer characteristics : BT.709
Matrix coefficients : BT.709

Audio
ID : 2
Format : AAC
Format/Info : Advanced Audio Codec
Format profile : HE-AAC / LC
Format settings : Implicit
Codec ID : mp4a-40-2
Duration : 57 min 43 s
Bit rate mode : Variable
Bit rate : 96.0 kb/s
Maximum bit rate : 101 kb/s
Channel(s) : 2 channels
Channel positions : Front: L R
Sampling rate : 48.0 kHz / 24.0 kHz
Frame rate : 23.438 FPS (1024 SPF)
Compression mode : Lossy
Stream size : 39.1 MiB (6%)
Language : English
Default : Yes
Alternate group : 1

related torrents

Torrent name

health leech seeds Size
 


comments (0)

Main Menu